3M Slaughter - Spend My. 1 kHz (Tracks) Artist: Mathusalemherod Title: Discography (2018-2020) Released: 2020 Style: Power Electronic, Industrial, Ambient RAR Size: 894 Mb Tracklist & Download Links. Parlophone and Capitol catalogue numbers continued to be used for contractual reasons. A great sounding release by a Japanese unofficial label, Led Zeppelin at the Seattle Centre Coliseum on March 21st on the North American '75 Tour. drake-tickets. The Beatles - The U. But other things do come into play with The Beatles catalog like the mastering you mentioned. mp3: 26-Jul-2008 19:49 : 9. Elvis Presley David Keith Charlie Schlatter With Zulu Time. FLAC is a free codec in the fullest sense. The Music Index gives you access to a comprehensive listing of over 30,000 albums based on reviews appearing in "Q" Magazine from October 1986 to 2006. VA - Twist And Shout: 60 Songs That Influenced The Beatles (2017) FLAC. HDtracks high resolution music downloads. 4M Six Feet Under - The. Index of santana flac. flac 神马乐团 神马乐团; 5 24K Magic. flac 潘玮柏 潘玮柏. The Beatles - Complete Christmas Collection 1963-1969 - 1994 The Beatles - Complete Christmas Collection 1963-1969 - 1994 Genre: Rock, FLAC / APE Download The Beatles - Complete Christmas Collection 1963-1969 - 1994. Download The Beatles - 1962 - 1966 FLAC album free. 08 KB: To save right click on the cover below and choose Save Picture As DOWNLOAD COVERS. Category: flac Brassneck - Theweddingpresent* - Brassneck. 2M: 002) Van Halen - Eruption. Buy and download flac hi-res music every day from your favorite artist. flac 邓紫棋 邓紫棋; 3 美人脸. The Beatles The Black Album 01 Tennessee 02 The house of the rising sun 03 Commonwealth 04 Enouch Powell 05 White power 06 Winston,. The Beatles - Abbey Road Artist: The Beatles | Album: Abbey Road | Style: Rock | Year: 2019 [1969 original] | Quality: DVD-Audio (MLP 5. it in the le. The Beatles, also known as the White Album, is the ninth studio album and only double album by the English rock band the Beatles, released on 22 November 1968. 1 X Track quality 100. Contents[show] Albums Please Please Me - March 22, 1963 With the Beatles - November 22, 1963 A Hard Day's Night - July 10, 1964 Beatles for Sale - December 4, 1964 Help! - August 6, 1965. The Beatles in Mono is a boxed set compilation comprising the remastered monaural recordings by the Beatles. The set was issued on 9 September 2009, along with the remastered mono recordings and companion The Beatles in Mono and The Beatles: Rock Band video game. Details of the much-anticipated 50th anniversary reissue of The Beatles' Abbey Road have been announced, following weeks of speculation. flacsync /music/flac cd /music/flac; flacsync. FLAC frontend (Windows GUI) Flac-Jacket: a set of scripts for creating FLAC files and an HTML index; FLACTAG: tags single album FLAC files with embedded CUE sheets using data from the MusicBrainz service; MacFLAC Mac OS X FLAC distribution; FLACer for Mac OS X; MP3FS, a read-only FUSE filesystem which can transcode FLAC to MP3 on the fly. The remastering project for both mono and stereo. Beatles - Control Room Monitor Mixes (Bootleg) [PRM-BR] FLAC 276 MB Beatles - Arrive Without Aging [Bootleg] 1993 only1joe FLAC-EAC 360 MB The Beatles Unsurpassed Masters FLAC Vol 1-7 (Bootleg) 2. flac Bruno Mars Bruno Mars; 6 Coming Home. ALAC Downloads ALAC 176kHz/24bit Download ALAC 192kHz/24bit Download ALAC 44kHz/24bit Download DSD Downloads DSD (Double Rate) 5. This is similar to how Zip works, except with FLAC you will get much better compression because it is designed specifically for audio, and you can play back compressed FLAC files in your favorite player (or your car or home stereo, see. Discover music on Discogs, the largest online music database. Provided to YouTube by Universal Music Group Get Back (Remastered 2009) · The Beatles Let It Be ℗ 2009 Calderstone Productions Limited (a division of Universal Music Group) Released on: 1970-05. HDtracks is a high-resolution music platform for music lovers to download their favorite tracks in master studio quality. mp3 1598 K 25/07/2004 21:12:02 audio/mpeg 3 Doors Down - Here Without You. Die Box enthält die zwölf Alben, die zwischen 1963 und 1970 veröffentlicht wurden, sowie Magical Mystery Tour und die beiden Past-Masters-Alben Vol. Details of the much-anticipated 50th anniversary reissue of The Beatles' Abbey Road have been announced, following weeks of speculation. Atlee - Flying A Head free download The Beatles - Something New free download The Beatles - Something New. 8M Slipknot - Before I. Застройщик: ООО "ПРАЙМ ПАРК" Super Prime Time is a hard bop music album recording by JOE FARNSWORTH released in 2012 on CD, LP/Vinyl and/or cassette. This bootleg listing is ONLY for informational purposes. The Beatles - Stereo Box Set (2009) [USB Limited Edition 24-44,1] FLAC (tracks) 24 bit/44,1 kHz | Time - 619:03 minutes | No Art | 7,32 GB 14 albums, 226 songs, over than 10 hours of Music | Source: Apple-shaped USB drive. Pepper's Lonely Hearts Club Band 1967 (2017) [50th Anniversary Edition, 2017 Stereo Mix by Giles Martin, DSD 128, LP] May 26, 2020 (1) Comment. Song A Day In The Life; Artist The Beatles; Writers Paul McCartney, John Lennon; Licensed to YouTube by UMG (on behalf of UMC (Universal Music Catalogue)); LatinAutor, BMI - Broadcast Music Inc. Download high resolution audio files from Norwegian 2L in stereo 96kHz, 192kHz, DXD, DSD and 5. ALAC Downloads ALAC 176kHz/24bit Download ALAC 192kHz/24bit Download ALAC 44kHz/24bit Download DSD Downloads DSD (Double Rate) 5. According to the terms of the DMCA, these boots infringe upon the copyrights of others: 22/12/2009 DIRE STRAITS - AMERICAN TOUR '95 GUNS 'N' ROSES - LA VIE EN ROSE. FLAC (tracks) 16 bit/ 44,1kHz | Time - 05:26:37 minutes | 1. flac 那英 那英; 2 爱你A. FLAC Prince - 3 Nites In Miami Glam Slam, '94 (SBD - Bootleg Remastered 2016) Discussion in ' Albums (lossless) ' started by mikedreams , Aug 12, 2016. 97Mb: November 30 2007 at 15:23: The Piano Guys - Hits Volume I Limited Founders. You can use or share the links and albums on this. 1) XLD extraction logfile from 2019-08-27 19:55:37 +0500. mid: 27-Jul-2015 12:31 : 23K : Beatles, The - Back In The USSR (Sequenced By DWBarnes). Search torrents on dozens of torrent sites and torrent trackers. Eno's early pop-oriented solo albums are often. 1 kHz Artist : John Mayer Album : Born and Raised Released : May 22, 20 Death Race 2050 2017 Bluray 1080p Light Hi-Fi - Death Race 2050 is a 2017 political satire action film directed by G. All tracks (*3) are from the Beatles activity period: 1958 to 1969 / plus Anthology sessions: 1994/95. Recorded during a session for "Penny Lane", "Carnival of Light" is nearly 14 minutes long and contains distorted, echo-laden sounds of percussion, keyboards. The command-line AACGain can be used in conjunction with the MP3GainGUI by. 00b: October 5 2013 at 23:05: Enya - Only Time Collection. JEMS 2017 Transfer: master cassettes recorded live off-air > Nakamichi CR-7A azimuth-adjusted playback > Sound Devices USBPre2 > Audacity 2. Made in Netherlands. The Beatles Stereo Box Set ist eine Boxset-Zusammenstellung sämtlicher britischer Studioalben der Musikgruppe Beatles. I know listening to them in these specific ways can be difficult to achieve, but i hope this helps someone out. What does it have for audio output? is it optical or coax digital audio? i would imagine that a DAC would give me better performance, but the price of this seems hard to beat. org JPGR's Beatles Bootlegs Index Singles, E. Our list of the Top 10 Beatles Bootleg Albums surveys the best of the rest, as well as some of the material that ended up on the Anthology records. to 237 MB 2018-10-30 1 0 The Beatles - The U. Search for torrents results: total 5 torrents found. The book contains a real alphabetical index by page. The Beatles - Abbey Road (1969) [1995] Vinyl Rip 24-192 / FLAC Label: Apple Records, Capitol Records (US)[C1 46446,C1 077774644617] Country: UK Genre: Rock Quality: Vinyl Rip/FLAC (*tracks,scans) Bitrate: Lossless [192kHz/24bit] Time: 47:21 Full Size: 1. 7digital is the global leader in B2B music solutions for companies looking to engage and acquire users with unique music experiences. FILE "The Beatles - The Many Faces Of The Beatles CD1(The Early Years). Ebbetts Blue Box 12CD, APE (image+. 00b: October 6 2013 at 12:05: The Beatles - 2007 - Greatest Hits Part2 1966-1970 (2CD) 0. The Beatles («Битлз», МФА: [ðə ˈbiː. My Sources: (1) Vinyl. wav" WAVE TRACK 01 AUDIO TITLE "Fanfare" PERFORMER "Jonathan Wilson" REM COMPOSER "" INDEX 01 00:00:00FILE "02 Dear Friend. 00b: October 5 2013 at 23:05: Enya - Only Time Collection. > 24-Nov-2004 16:30 1. What does it have for audio output? is it optical or coax digital audio? i would imagine that a DAC would give me better performance, but the price of this seems hard to beat. The Beatles are my life, and it genuinely bugs me to give anything less than 5 stars for anything that bears their name. tlz]; также группу называют «Ливерпульской четвёркой» (англ. 6M: 003) Lynyrd Skynyrd - Freebird. Elvis Presley - Classic Love Balads 1986 [FLAC]-JDR: 0. The Beatles The Black Album 01 Tennessee 02 The house of the rising sun 03 Commonwealth 04 Enouch Powell 05 White power 06 Winston,. The Beatles – Stereo Box Set (2009) [USB Limited Edition 24-44,1] FLAC (tracks) 24 bit/44,1 kHz | Time – 619:03 minutes | No Art | 7,32 GB 14 albums, 226 songs, over than 10 hours of Music | Source: Apple-shaped USB drive. 4M SlipKnoT - Pulse Of. 1 Tracklisting: 01 There's A Place (take 5 & 6) 02 Misery (take 2 - 6) 03. HDtracks high resolution music downloads. As a last news, I'm planning to begin a whole new Beatles project. mid: 27-Jul-2015 12:31 : 25K : Beatles, The - Ballad Of John And Yoko. Don't Bother Me - 02:33 05. 2M: 002) Van Halen - Eruption. From 1968, in both the UK and the US, starting with the single "Hey Jude" and the album The Beatles (better known as "the White Album"), new releases appeared on the Beatles' own Apple record label. The audio is compressed with loss of quality, but the loss is negligible for the typical user, and the file size is usually less than that of the original files. The Beatles discography The Beatles Wiki. 31 GB WebSite: Album Preview The Rolling Stones - Bridges To Bremen (2019) [FLAC 24bit/48kHz] Various Artists - The Rolling Stones Rock And Roll Circus {Expanded} (2019) [FLAC. I can not imagine why anyone who has any morals or values would want to start a company can do so pay day advances payday advance loans cash loan national cash advance loans cash loan company that offers long term loans to avail 30 day payday loan company all said harris and done in the near future expect more states to start the payday loan company correspondent washington a consortium of. Albums Label: Capitol Records. Проектная декларация на рекламируемом сайте. 1 download flac Arcade Fire - Funeral download flac. ogg) やMatroskaファイル (. 2019 (6) October (5) March (1) 2018 (6) September (6) 2017 (92) May (92) The Crystal Method discography download FLAC free. flac download. But other things do come into play with The Beatles catalog like the mastering you mentioned. zip : 314,27 MB…. Various ‎– The Exotic Beatles 94-99 Third World War II (1971 uk hard rock, blues rock and heavy blues - Flac) год назад Index. wav" WAVE TRACK 03 AUDIO. A large number of the country's advertising specialists have been influencing themselves in the legend of psychiatry and the sociologies with a specific end goal to expand their expertise at "designing" our agree to their recommendations. The Beatles - Complete Christmas Collection 1963-1969 - 1994 The Beatles - Complete Christmas Collection 1963-1969 - 1994 Genre: Rock, FLAC / APE Download The Beatles - Complete Christmas Collection 1963-1969 - 1994. 3 MB) (06) [The Beatles] She's Leaving Home. Performer: The Beatles Album: Anthology Vol. I use FLAC primarily as a method for backing up my music. 8MHz/64fs Download FLAC Downloads FLAC 176kHz/24bit Download FLAC 192kHz/24bit Download FLAC 352kHz. com ArtWork: not included Size. Little Child - 01. Add to Cart or Add to Wishlist: View our Top 50 FLAC 96kHz/24bit Download: Home. Lossless Audio Bootlegs, Page 220 - No MP3s here Just lossless stuff. > 09-Dec-2004 17:04 1. Peach audio capture, a quality trademark in itself for audience recorded shows in Japan. [Hi-Res] The Beatles - Stereo USB Box Set (flac 44. Its plain white sleeve has no graphics or text other than the band's name embossed , [a] which was intended as a direct contrast to the vivid cover artwork of the band's previous LP Sgt. But first, let me say that this is a fine collection of Beatles material. $100+ (Introducing the Beatles, if genuine) General. Quality: FLAC 16 bit / 44. Artist: Braids Title: Deep In the Iris Year Of Release: 2015 Label: Arbutus Records Genre: Pop/Rock, Rock Alternative & Indie Quality: MP3 320 kbps / FLAC (tracks) Total Time: 00:41:28 Total Size: 103. By Arto Sotavalta. The Beatles - Black Album (Studio FLAC) Black Album (bootleg) January 1969 London, England Compilation of outtakes from the "Get Back" sessions. According to the terms of the DMCA, these boots infringe upon the copyrights of others: 22/12/2009 DIRE STRAITS - AMERICAN TOUR '95 GUNS 'N' ROSES - LA VIE EN ROSE. Encode a directory of FLAC files to AAC. The set was issued on 9 September 2009, along with the remastered mono recordings and companion The Beatles in Mono and The Beatles: Rock Band video game. The remastering project for both mono and stereo. 98: The Beatles / Yellow Submarine 180 Gram Vinyl Record AEMI 82467 $22. The Music Index gives you access to a comprehensive listing of over 30,000 albums based on reviews appearing in "Q" Magazine from October 1986 to 2006. mid: 27-Jul-2015 12:31 : 41K : Beatles, The - Ask Me Why (Sequenced By DWBarnes). The Beatles - Abbey Road (1969) [1995] Vinyl Rip 24-192 / FLAC Label: Apple Records, Capitol Records (US)[C1 46446,C1 077774644617] Country: UK Genre: Rock Quality: Vinyl Rip/FLAC (*tracks,scans) Bitrate: Lossless [192kHz/24bit] Time: 47:21 Full Size: 1. flac 那英 那英; 2 爱你A. Catalog #: 7243 8 34445 2 6 Style: Rock Roll, Pop Rock Year: 1995 Format: FLAC (image +. Class Index. Various ‎– The Exotic Beatles 94-99 Third World War II (1971 uk hard rock, blues rock and heavy blues - Flac) год назад Index. Last Entry by davebowman 1995-06-24 - Neil Young & Pearl Jam Neil Jam: Mirror Ball Live - FLAC Date Entered: 2020-06-14 11:38:48. FLAC is a free codec in the fullest sense. All My Loving – 02:13 04. The Beatles - Please Please Me (1963/2009) FLAC (tracks) 24 bit/44,1 kHz | Time - 32:28 minutes | 429 MB. All shows are available in both FLAC and mp3 format. Quality: FLAC 16 bit / 44. 6MHz/128fs Download DSD (Quad Rate) 11. The Beatles in Mono > 1-Channel FLAC? Reply #2 – 2010-03-26 14:39:17 You probably save more space by switching to a higher compression setting, and it'd probably take about the same amount of time. Index of santana flac. jpg 5,184 × 3,456; 3. mid: 27-Jul-2015 12:31 : 23K : Beatles, The - Back In The USSR (Sequenced By DWBarnes). 39 GB The Beatles - The Beatles (White Album - Super Deluxe) (1968/2018) [24-96 FLAC,Hi-Res] 6. (Never released in any studio album*(1) or as singles*(2)). We provide fast downloadable and reliable service for you. flac 邓紫棋 邓紫棋; 3 美人脸. You can use or share the links and albums on this. flacsync -d /ipod /music/flac Encode a directory of FLAC files to high-quality OGG, using 4 CPU threads. Pepper's Lonely Hearts Club Band\04 - Getting Better. 1kHz 24bit). flac 潘玮柏 潘玮柏. The remastering project for both mono and stereo. 3 MB) (06) [The Beatles] She's Leaving Home. php(143) : runtime-created function(1) : eval()'d code(156) : runtime-created function(1. 16-bit FLAC Preview In Spite of All the Danger (With John Lowe & Colin Hanton, Liverpool, 1958) In Spite of All the Danger (With John Lowe & Colin Hanton, Liverpool, 1958) The Beatles 2019 From £0. Pink Floyd - Atom Heart Mother, The High Resolution Remasters ‎ download flac Dave Matthews & Tim Reynolds - Blenheim Vineyards Painted Series Vol. With a line-up comprising John Lennon, Paul McCartney, George Harrison and Ringo Starr, they are regarded as the most influential band of all time. The Beatles The Black Album 01 Tennessee 02 The house of the rising sun 03 Commonwealth 04 Enouch Powell 05 White power 06 Winston,. The 225 best bootlegs available via download, 2015-19 5 years - 130 different artists The posts #1 to #100 were mostly made from downloads prior to 2015. Download rock album by The Beatles ‎- Abbey Road (Anniversary Edition) (2019) FLAC 5. Index of Titles Abbey Road (The Beatles), 80, 165, 357, 358, 389 "Abraham, Martin and John" (Dion), 40, 75, 115, 194, 321 Absolutely Free (The Mothers of. We have fine-tuned everything; from our stable of hosts , debuting with Pat Matthews & Ray Whitaker to our newest, Bob Walker and Wayne Watkins!Add to them the musical categories which set us apart from all other Beatles "tribute" stations. The goal for this page is to codify best practices and collect proposals for standardization of VorbisComment field names. Free As A Bird (Anthology 1 Version) (4:25) 02. The Audiophile Music Player. Unblock torrent sites by proxy. Enjoy the music!. re: the beatles 1982 mfsl vinyl/lp collection « Reply #16 on: December 21, 2016, 11:55:55 AM » I would like to send someone who would be interested in receiving 2 or 3 copies of their albums (different albums of course),, reason is I have tweeked their entire collection to a degree and believe they are very special and am looking for. wav" WAVE TRACK 01 AUDIO PERFORMER "The Beatles" TITLE "Get Back" INDEX 01 00:00:00FILE "02 Dig a Pony. All popular music albums format Mp3 / Flac at MusicRW. The Beatles - Complete Christmas Collection 1963-1969 - 1994 The Beatles - Complete Christmas Collection 1963-1969 - 1994 Genre: Rock, FLAC / APE Download The Beatles - Complete Christmas Collection 1963-1969 - 1994. > 09-Dec-2004 16:57 1. flac) (A) BEATLES VI (Apple/Capitol CDP 0946 3 57499 2 2, out of print) (includes Mono Type-B fold-down mix erroneously issued on first pressing of THE CAPITOL ALBUMS, VOL. Skupina účinkovala v rokoch 1960 – 1970. The Beatles (The Original Studio Recordings) - also known as The Beatles: Stereo Box - is a box set compilation comprising all remastered recordings by English rock band the Beatles. The BEATLES (‘White Album’) was the first Beatles album to be released on the group’s own Apple Records label. The remastering project for both mono and stereo. FLAC format and can be downloaded from FileFactory as a. REM GENRE Rock REM DATE 1969 PERFORMER "Beatles, The" TITLE "Abbey Road [Black Triangle - CBS SONY in Plastic Hub]" FILE "01 Beatles - Come Together. 20 Unreleased Beatles Recordings We Want To Hear by Jordan Runtagh 9/16/2013 Last week we were overjoyed to learn that a new collection of unheard recordings by the Beatles will be hitting stores. The audio is compressed with loss of quality, but the loss is negligible for the typical user, and the file size is usually less than that of the original files. wav > mjk5510 > Peak Pro XT (pitch correction / subtle tweak / patch / volume smoothing / index) > xACT 2. Anette Maiburg, Alexandra Cravero, Emmanuel Ceysson, Karina Buschinger, Wen Xiao Zheng, Guido Schiefen, Mathias Haus. 00b: October 6 2013 at 12:05: The Best Of Black Sabbath: 0. /-- 23/09/2004 23:16:22 Directory 3 Doors Down - Away From The Sun. VA - Twist And Shout: 60 Songs That Influenced The Beatles (2017) FLAC. A great sounding release by a Japanese unofficial label, Led Zeppelin at the Seattle Centre Coliseum on March 21st on the North American '75 Tour. RichUK- Thanks very much for the information. $100+ (Introducing the Beatles, if genuine) General. Encode a directory of FLAC files to AAC. The Rest Of Us (2019) 1080p WEB-DL H264 AC3-EVO; Spy Intervention (2020) 1080p WEB-DL H264 AC3-EVO; Sadistic Intentions (2019) 1080p WEB-DL H264 AC3-EVO. Albums Sampler (2014) FLAC. me - Demonoid. > 02-Dec-2004 18:45 1. Elvis Presley - Classic Love Balads 1986 [FLAC]-JDR: 0. Skupina účinkovala v rokoch 1960 – 1970. flac 那英 那英; 2 爱你A. Застройщик: ООО "ПРАЙМ ПАРК" Super Prime Time is a hard bop music album recording by JOE FARNSWORTH released in 2012 on CD, LP/Vinyl and/or cassette. The Beatles' time in India afforded them the opportunity for some much-needed self-reflection, free from the distractions of daily life and the headaches of being international icons. Capitol Starline 6066 probably used this master as well. Andy Kim - Who Has The Answers? free download Andy Kim - Who Has The Answers? 1795 mb. You Shadow 9. Here you can find Music by Artists, bestselling songs, bestselling albums, fresh deals every day. È celebre soprattutto per il suo lavoro nei Genesis, con cui ha inciso otto album dal 1971 al 1977, per poi. "Beatles 1967-06-01" and "Beatles 1967-11-27"). Motown flac Motown flac. Beatlesi i Ed Sullivan w lutym 1964 roku 7 lutego 1964 roku Beatlesi, otoczeni 4 tysiącami fanów na lotnisku Heathrow , opuścili Londyn [80] i wylądowali na lotnisku JFK w Nowym Jorku , witani przez 3 tysiące osób [81]. Die Box enthält die zwölf Alben, die zwischen 1963 und 1970 veröffentlicht wurden, sowie Magical Mystery Tour und die beiden Past-Masters-Alben Vol. 7M Black Sabbath - Sabbath Bloody Sabbath (1986, Castle Communications, NELCD 6017). "Bob Dylan" is under "B". flac 孙露 孙露; 4 下一站是你. The official website for George Harrison. All shows are available in both FLAC and mp3 format. Quality: FLAC 24 bit / 44. Create an account with SongMeanings to post comments, submit lyrics, and more. flacsync -c 4 -t ogg -g 9 /music/flac Force re-encode two albums of FLAC files, even if the AAC files exist. 1kHz, CD-Format | Full Scans Included Label: Mobile Fidelity Sound Lab | Cat#: MFSL 1-102. Pink Floyd - Atom Heart Mother, The High Resolution Remasters ‎ download flac Dave Matthews & Tim Reynolds - Blenheim Vineyards Painted Series Vol. The Beatles' time in India afforded them the opportunity for some much-needed self-reflection, free from the distractions of daily life and the headaches of being international icons. flac 潘玮柏 潘玮柏. 1 kHz/24-bit “lossless” FLAC format. 1 kHz (Tracks) Artist: The Beatles Title: The Beginnings Of The Beatles: From Hamburg To London 1961-1962 Released: 2013 Style: Pop Rock RAR Size: 593 Mb. The back-story of The Undertones is the kind of thing that makes rock music so endlessly intriguing and endearing: five teenage friends (including two brothers) from Derry, Northern Ireland form a band in the mid-seventies to play Beatles and Lindisfarne covers, but in the wake of the Ramones' legendary July, '76 British tour and its aftermath, everything changes- the Punk revolution arrives. VA - Twist And Shout: 60 Songs That Influenced The Beatles (2017) FLAC. The Beatles / The Beatles with Tony Sheridan / Tony Sheridan And The Beat Brothers - The Early Tapes Of (1984) [FLAC|Lossless|tracks +. The Beatles were an English rock band formed in Liverpool in 1960. With that said, let's continue on! The Beatles' fourth album, Beatles for Sale, was released in the UK on December 4th, 1964, and reached the top spot on December 19th. # # # To see a cross reference index of each Beatle track/take included on the bootlegs below for the normal recording sessions then click The Beatles Sessions Takes Index. 8M Slipknot - Before I. FLAC The Beatles THE BLACK ALBUM Remastered Edition [RMW 453/454] London, England January 1969 Disc One 01 T. A large number of the country's advertising specialists have been influencing themselves in the legend of psychiatry and the sociologies with a specific end goal to expand their expertise at "designing" our agree to their recommendations. This comes from an unofficial release called Killer Employee's Pension by Tarantura label (that over compressed it!) which in turn derives from a Mr. > 09-Dec-2004 17:00 1. Enjoy the music!. 16-bit FLAC Preview In Spite of All the Danger (With John Lowe & Colin Hanton, Liverpool, 1958) In Spite of All the Danger (With John Lowe & Colin Hanton, Liverpool, 1958) The Beatles 2019 From £0. (1963) - Mono. The Beatles - The Beatles' Second Album (US Capitol) - 3 - You Really Got A Hold On Me. Super MP3 download always brings the hottest songs of 14 categories, from choose specific edition of live, piano, guitar. 2 - The '70s, '80s, '90s Genre: R&B Release Date: 2018-08-10 www publisher: hd24bit. From 1968, in both the UK and the US, starting with the single "Hey Jude" and the album The Beatles (better known as "the White Album"), new releases appeared on the Beatles' own Apple record label. The Beatles - Stereo Box Set (2009) [USB Limited Edition 24-44,1] FLAC (tracks) 24 bit/44,1 kHz | Time - 619:03 minutes | No Art | 7,32 GB 14 albums, 226 songs, over than 10 hours of Music | Source: Apple-shaped USB drive. 1 kHz (Tracks) Artist: Mathusalemherod Title: Discography (2018-2020) Released: 2020 Style: Power Electronic, Industrial, Ambient RAR Size: 894 Mb Tracklist & Download Links. OTHER CATEGORIES. 1kHz FLAC (tracks) Total Time: 29:43 Total Size: 69 / 186 / 334 MB. Eleanor Rigby 03. Don’t Bother Me – 02:33 05. Pbthal, spectrum analysis shows FLAC for this EP to be remarkably similar to his red wax LP FLAC, and indeed it sounds like it (see also remarks for pbthal's EP FLAC for "Chains"). You won't find a more complete collection anywhere. The Beatles in Mono > 1-Channel FLAC? Reply #2 - 2010-03-26 14:39:17 You probably save more space by switching to a higher compression setting, and it'd probably take about the same amount of time. Bootlegs: Performer First: Performer Last: Title: Date: Venue: City: State / Country: Tracker: Track # Torrent Date: Pkg: Type: Standard: Date @ Beatles: Alternate. 8M Slipknot - Before I. Peppers Lonely Hearts Club Band 1967 - Magical. Download The Beatles - 1962 - 1966 FLAC album free. Opções de Buscas. flac 孙露 孙露; 4 下一站是你. We provide fast downloadable and reliable service for you. Music in the format flac, Vinyl rip, Audio-DVD, Dts, a wide variety of genres, styles and directions, from hard rock to classics, new music, hits, as well as collections of popular music as lossless, with rich, deep, and before all good sound. wav" WAVE TRACK 02 AUDIO TITLE "Dear Friend" PERFORMER. Quality: FLAC 16 bit / 44. Broken links and bugs will not be fixed. flac 那英 那英; 2 爱你A. Filename C:\rips\Ayreon - Electric Castle Live and Other Tales (2020) [FLAC]\CD2\12 - Pink Beatles in a Purple Zeppelin. Download FLAC 16bit, 24bit Music of all genres and styles. A great sounding release by a Japanese unofficial label, Led Zeppelin at the Seattle Centre Coliseum on March 21st on the North American '75 Tour. Download Album YUI -HOLIDAYS IN THE SUN FLAC Holidays in the Sun is the fourth studio album by Japanese singer-songwriter Yui. Written by Arto Sotavalta. 00b: October 6 2013 at 12:05: The Final Countdown. This website is all about The Beatles and the individual members of The Beatles. 00b: October 5 2013 at 23:06. 4M SlipKnoT - Pulse Of. Class Index. You won't find a more complete collection anywhere. Pepper's Lonely Hearts Club Band. 0 (24/96 capture to. Artist: Bröderna Lindqvist Title: Bröderna Lindqvist möter Ann Marie och Gert Ohlsson Year Of Release: 1974/2019 Label: Atenzia Records Genre: Folk Quality: Mp3 320 kbps / FLAC (tracks) / 24bit-44. I suspect a more accurate description would have been to state the entire front end chain sounded better than he recalls the CD or vinyl chains he has used in comparison. But other things do come into play with The Beatles catalog like the mastering you mentioned. I can't get Album Artist to work at all with my FLAC files. 00b: October 5 2013 at 23:05: Enya - Only Time Collection. com for music, news, photos and official store. Download Album YUI -HOLIDAYS IN THE SUN FLAC Holidays in the Sun is the fourth studio album by Japanese singer-songwriter Yui. Catalog #: 7243 8 34445 2 6 Style: Rock Roll, Pop Rock Year: 1995 Format: FLAC (image +. flac 神马乐团 神马乐团; 5 24K Magic. FILE "The Beatles - The Many Faces Of The Beatles CD1(The Early Years). 2019 (6) October (5) March (1) 2018 (6) September (6) 2017 (92) May (92) The Crystal Method discography download FLAC free. We have fine-tuned everything; from our stable of hosts , debuting with Pat Matthews & Ray Whitaker to our newest, Bob Walker and Wayne Watkins!. Lyrics submitted by duskehedited by Johhnno. KickassTorrents (KAT), founded in 2008, provides torrent files and magnet links to peer to peer file sharing using the BitTorrent protocol. 09/12/2008 HEART - SECRET HEART ILLUSTRATED. All I've Got to Do - 02:08 03. BITRATE: FLAC TRACK LISTING: Disc 1: 01 Please Please Me (take unknown) The first Beatles Museum is located in Canela, RS - Brazil. (05) [The Beatles] Fixing A Hole. 1 (and 48k - I think), but they will not go higher than that. Join us today for the ultimate listening experience!. The Beatles - Discography [14 Stereo Albums - 320kbps] 1. Eleanor Rigby 03. All shows are available in both FLAC and mp3 format. Log in now to tell us what you think this song means. Succeeding years saw the Everly Brothers sell. Music in the format flac, Vinyl rip, Audio-DVD, Dts, a wide variety of genres, styles and directions, from hard rock to classics, new music, hits, as well as collections of popular music as lossless, with rich, deep, and before all good sound. Проектная декларация на рекламируемом сайте. È celebre soprattutto per il suo lavoro nei Genesis, con cui ha inciso otto album dal 1971 al 1977, per poi. A great sounding release by a Japanese unofficial label, Led Zeppelin at the Seattle Centre Coliseum on March 21st on the North American '75 Tour. Almost any player on any platform can open mp3 files. Beatlesi i Ed Sullivan w lutym 1964 roku 7 lutego 1964 roku Beatlesi, otoczeni 4 tysiącami fanów na lotnisku Heathrow , opuścili Londyn [80] i wylądowali na lotnisku JFK w Nowym Jorku , witani przez 3 tysiące osób [81]. flac" "P:\Audio\B\The Beatles\_The Beatles 2005-2006 Dr. The Beatles - The Beatles (The White Album) [New Vinyl LP] 180 Gram 4. Contents[show] Albums Please Please Me - March 22, 1963 With the Beatles - November 22, 1963 A Hard Day's Night - July 10, 1964 Beatles for Sale - December 4, 1964 Help! - August 6, 1965. The Beatles - Abby Rode (Obsolete cd obs003)(FLAC) Torrent downloaded from www. Hi - iPods will play back 24-bit files at 44. "Beatles 1967-06-01" and "Beatles 1967-11-27"). Coralli], 1845 Le Diable A Quatre Ballet Music And Entr'Actes For Opera [De Leuven, Mazillier], 1849 La Filleule Des Fees Ballet For Orchestra [Saint-Georges And J. FLAC The Beatles THE BLACK ALBUM Remastered Edition [RMW 453/454] London, England January 1969 Disc One 01 T. The group announced the news in a 35-second video. and elsewhere for at least a year (e. All My Loving – 02:13 04. The remastering project for both mono and stereo versions. The Beatles - Complete Christmas Collection 1963-1969 - 1994 The Beatles - Complete Christmas Collection 1963-1969 - 1994 Genre: Rock, FLAC / APE Download The Beatles - Complete Christmas Collection 1963-1969 - 1994. Search torrents on dozens of torrent sites and torrent trackers. Over the years, the collection has also been released on cassette, 8-track, compact disc (CD), on a USB flash drive in MP3 and 24-bit FLAC format, and on digital media streaming services. mka) などのメディアコンテナに格納することもできる。 一部の変換ソフトには、無圧縮形式に変換可能なFLAC Uncompressedというオプションが用意されている。. Albums from all genres in Hi-Res quality. mp3: 10-Jan-2008 3:51: CD1-01-Back in the USSR. Add to Cart or Add to Wishlist: View our Top 50 FLAC 96kHz/24bit Download: Home. Filename C:\rips\Ayreon - Electric Castle Live and Other Tales (2020) [FLAC]\CD2\12 - Pink Beatles in a Purple Zeppelin. : XSON158844F96. The Beatles - The Beatles (White Album - Super Deluxe) + [FLAC] DVDRiP, télécharger The Beatles - The Beatles (White Album - Super Deluxe) + [FLAC], downlaod The. 23 KB Index of /private/files/ File Name ↓ File Size ↓ Date ↓ Parent directory/ - - The Beatles [1968][FLAC]/ - 25-Jan-2016 13:44. The Beatles, also known as the White Album, is the ninth studio album and only double album by the English rock band the Beatles, released on 22 November 1968. 8 % Extraction speed 5. flac 那英 那英; 2 爱你A. com ArtWork: not included Size. The remastering project for both mono and stereo. CUE) REM GENRE RockREM DATE 2013REM DISCID C0125D0DREM COMMENT "ExactAudioCopy v1. The first Beatles Museum is located in Canela, RS - Brazil. 97Mb: November 30 2007 at 15:23: The Piano Guys - Hits Volume I Limited Founders. 8MHz/64fs Download FLAC Downloads FLAC 176kHz/24bit Download FLAC 192kHz/24bit Download FLAC 352kHz. Search the 120k+ newsgroups that Giganews offers access to or request a particular Usenet group that is not present on our news servers. Filename C:\rips\Ayreon - Electric Castle Live and Other Tales (2020) [FLAC]\CD2\12 - Pink Beatles in a Purple Zeppelin. 00b: October 5 2013 at 23:05: Enrique Iglesias - Greatest Hits (2008) [EAC] [FLAC] 0. If you have any questions about this content, please contact the administrators of this directory, who made it publicly available. THE MOST COMPLETE LIST OF BEATLES COVER SONGS ON THE INTERNET - Beatles Songs Covered By Others And Songs The Beatles Covered BEATLES COVER SONGS This site is about cover versions of songs The Beatles recorded For images of Beatles album covers and picture sleeves see: FLAC downloads new 2016 Complete Edition. Hi - iPods will play back 24-bit files at 44. cue] nnmclub. Browse GeorgeHarrison. mid: 27-Jul-2015 12:30 : 44K : Beatles, The - Bad Boy. mid: 27-Jul-2015 12:31 : 23K : Beatles, The - Back In The USSR (Sequenced By DWBarnes). Albums from all genres in Hi-Res quality. Buy and download flac hi-res music every day from your favorite artist. 97Mb: November 30 2007 at 15:23: The Piano Guys - Hits Volume I Limited Founders. flac 那英 那英; 2 爱你A. : Super MP3 Download is easy over 100 million MP3 for free from to download. [Hi-Res] The Beatles - Stereo USB Box Set (flac 44. Song A Day In The Life; Artist The Beatles; Writers Paul McCartney, John Lennon; Licensed to YouTube by UMG (on behalf of UMC (Universal Music Catalogue)); LatinAutor, BMI - Broadcast Music Inc. Black Sabbath - Vol. Artist: Eagles Format: Vinyl, Album Country: US Released: 1976 Genre: Rock [Soft Rock] Quality: FLAC (Tracks) The Beatles ‎- Artifacts (The. tlz]; также группу называют «Ливерпульской четвёркой» (англ. All shows are available in both FLAC and mp3 format. As a last news, I'm planning to begin a whole new Beatles project. Latest Forum Threads. Regardless, I'll still cover what changes I made to my alternate album, and will always offer downloads in both mp3 and FLAC formats. But first, let me say that this is a fine collection of Beatles material. Search the 120k+ newsgroups that Giganews offers access to or request a particular Usenet group that is not present on our news servers. > 24-Nov-2004 16:30 1. wav" WAVE TRACK 01 AUDIO PERFORMER "The Beatles" TITLE "Get Back" INDEX 01 00:00:00FILE "02 Dig a Pony. Artist: Alfie Boe Title: You'll Never Walk Alone - The Collection Year Of Release: 2011 Label: EMI Classics Genre: Pop, Classical Crossover Quality: FLAC (tracks) / MP3 320 Kbps Total Time: 58:57 Total Size: 311 Mb / 149 Mb. (1965) [flac] This content is being served through the AFS server afs07. The Beatles - Abby Rode (Obsolete cd obs003)(FLAC) Torrent downloaded from www. A | C | E | F | I | P | S | T | U | V. BEATLES FOR SALE - Deluxe Edition (Purple Chick PC-110/111) (3 CDs, stereo and mono mixes + session outtakes) (from. Quality: FLAC 16 bit / 44. It was commissioned for the Million Volt Light and Sound Rave, an event held at the Roundhouse in London on 28 January and 4 February 1967. Log in now to tell us what you think this song means. com for music, news, photos and official store. VorbisComment is widely supported on portable Ogg Vorbis players as well as streaming, editing and playback software. 8MHz/64fs Download FLAC Downloads FLAC 176kHz/24bit Download FLAC 192kHz/24bit Download FLAC 352kHz. flac Moving files from the System drive to a Media Drive. it in the le. The Beatles in Mono > 1-Channel FLAC? Reply #2 - 2010-03-26 14:39:17 You probably save more space by switching to a higher compression setting, and it'd probably take about the same amount of time. 2MHz/256fs Download DSD (Single Rate) 2. The Beatles - Beatles for Sale Beatles for Sale es el cuarto disco de estudio de The Beatles, lanzado a la venta a fines de 1964 y permaneciendo en el tope de las listas inglesas durante once semanas (intermitentes). $100+ (Introducing the Beatles, if genuine) General. Tracklist: 01. ExtraTorrents. Song A Day In The Life; Artist The Beatles; Writers Paul McCartney, John Lennon; Licensed to YouTube by UMG (on behalf of UMC (Universal Music Catalogue)); LatinAutor, BMI - Broadcast Music Inc. Download Movies, TV Shows, Music, Games, Anime, Applications, from kickasstorrents. If you have any questions about this content, please contact the administrators of this directory, who made it publicly available. mp3: 26-Jul-2008 19:50 : 1. 37 > FLAC 01 Jailbreak 02 It's Only Money 03 Emerald 04 The Boys Are Back In Town 05 Still In Love With You 06. The album has been remixed from the original multi-track tapes by Giles Martin, son of the album's producer George Martin. Full HD Movies Download. 00b: October 6 2013 at 12:05: The Beatles - 2007 - Greatest Hits Part2 1966-1970 (2CD) 0. Here is the link to both the Beatles in 24 Bit FLAC and mono for all of you who havent experienced them in this format. The Beatles "Deluxe Edition volume 1" Purple Chick DISCS ONE - stereo Single 101 Hey Jude 102 Revolution The Beatles - record 1 103 Back In The U. Opções de Buscas. mp3: 26-Jul-2008 19:49 : 9. 05/02/2009 DEAD KENNEDYS - SPEND JULY 4th. Made in Netherlands. 3 MB) (06) [The Beatles] She's Leaving Home. FLAC frontend (Windows GUI) Flac-Jacket: a set of scripts for creating FLAC files and an HTML index; FLACTAG: tags single album FLAC files with embedded CUE sheets using data from the MusicBrainz service; MacFLAC Mac OS X FLAC distribution; FLACer for Mac OS X; MP3FS, a read-only FUSE filesystem which can transcode FLAC to MP3 on the fly. [Flac] Rock progressivo, Rock sinfonico, Art rock, Pop rock, Musica classica DISCOGRAFIA 1975-2012::::: Bio & Info :::::Stephen Richard Hackett, meglio noto come Steve Hackett (Pimlico, 12 febbraio 1950), è un chitarrista e compositore britannico di rock progressivo. cue) lossless\1963 Please Please Me\Cd\01 - I Saw Her Standing There. The Beatles («Битлз», МФА: [ðə ˈbiː. 7 Myths about HD Music. it in the le. HDtracks high resolution music downloads. Production of "Now and Then" began in 1996, with guitar provided by Harrison and percussion from Starr. Elvis Presley David Keith Charlie Schlatter With Zulu Time. Album: Abbey Road (Remastered) Year: 1969 Remastered: 2009 Country: England This website is an external content index. Bootlegs: Performer First: Performer Last: Title: Date: Venue: City: State / Country: Tracker: Track # Torrent Date: Pkg: Type: Standard: Date @ Beatles: Alternate. 16-bit FLAC Preview In Spite of All the Danger (With John Lowe & Colin Hanton, Liverpool, 1958) In Spite of All the Danger (With John Lowe & Colin Hanton, Liverpool, 1958) The Beatles 2019 From £0. last updated March 13, 2019 jump to music files NOTICE: Due to serious illness this Webpage will no longer be maintained. com ArtWork: not included Size. Made in Netherlands. The Beatles released twelve original studio albums, and have a slew of EPs and compilations. Mixtapes Forums Lyrics Artists add Journals. 7 MB) (09) [The Beatles] When I'm Sixty-Four. Buy and download flac hi-res music every day from your favorite artist. 1 kHz (Tracks) Artist: Monet192 Title: Medical Heartbreak Released: 2020 Style: Rap/Hip-Hop RAR Size: 273 Mb + 153 Mb Album information I like. Latest releases, albums, compilations and most complete collections in 24bit WEB Rip, 24bit to 32bit Vinyl Rips. Contents[show] Albums Please Please Me - March 22, 1963 With the Beatles - November 22, 1963 A Hard Day's Night - July 10, 1964 Beatles for Sale - December 4, 1964 Help! - August 6, 1965. The Beatles – Please Please Me (1963/2009) FLAC (tracks) 24 bit/44,1 kHz | Time – 32:28 minutes | 429 MB. This comes from an unofficial release called Killer Employee's Pension by Tarantura label (that over compressed it!) which in turn derives from a Mr. Class Index. Is the most common format for storing audio. Chetes - Discografia. With a line-up comprising John Lennon, Paul McCartney, George Harrison and Ringo Starr, they are regarded as the most influential band of all time. Capitol Starline 6066 probably used this master as well. Tours > The Beatles > Beatles Compilations Start Date: 0000-00-00: Date: Band: Roio Name: Roio Label / Taper: Venue: City: Recording: Format: 1960 - 1969: The Beatles. HDtracks high resolution music downloads. Quality: FLAC 24 bit / 44. Filename C:\rips\Ayreon - Electric Castle Live and Other Tales (2020) [FLAC]\CD2\12 - Pink Beatles in a Purple Zeppelin. The Beatles / Sgt. The Beatles The Black Album 01 Tennessee 02 The house of the rising sun 03 Commonwealth 04 Enouch Powell 05 White power 06 Winston,. i just didnt want to buy one of these and not have it work. Pozdrawiam wszystkich odwiedzających I'm a fanatic collector of The Beatles bootlegs. Rolling Stones El Mocambo 77 Toronto Canada 03/4-5/1977 Mp3 - 320kbps - Soundboard 01_Worried_About_You 02_Crakin_'_Up. flac 孙露 孙露; 4 下一站是你. The Beatles - Stereo Box Set (2009) [USB Limited Edition 24-44,1] FLAC (tracks) 24 bit/44,1 kHz | Time - 619:03 minutes | No Art | 7,32 GB 14 albums, 226 songs, over than 10 hours of Music | Source: Apple-shaped USB drive. zip : 314,27 MB…. (1963) - Mono. flac" WAVE TRACK 01 AUDIO TITLE "Ain't She Sweet" PERFORMER "The Beatles" INDEX 01 00:00:00 TRACK 02 AUDIO TITLE "Cry For A Shadow" PERFORMER "The Beatles" INDEX 01 02:14:19 TRACK 03 AUDIO TITLE "My Bonnie" PERFORMER "Tony Sheridan & The Beatles" INDEX 01 04:38:19 TRACK 04 AUDIO. Rooted in skiffle, beat and 1950s rock and roll, their sound. 02 Gb Tracklist: Anthology 1 Disc 1 01. The band's best-known lineup consisted of John Lennon, Paul McCartney, George Harrison, and Ringo Starr. Sitemap Ik Heb Zo Waanzinnig Gedroomd - Kinderen voor Kinderen - Live Op De Dam, Zionix - Various - Triund, Seule - Michel Cusson - Monica La Mitraille (Soundtrack), Całkiem Spokojne Zmęczenie (First Mix) - SBB. com for music, news, photos and official store. OTHER CATEGORIES. 1 Tracklisting: 01 There's A Place (take 5 & 6) 02 Misery (take 2 - 6) 03. Tracklist:. It was released on July 14, 2010. 2019 (6) October (5) March (1) 2018 (6) September (6) 2017 (92) May (92) The Crystal Method discography download FLAC free. The Beatles - The Beatles Stereo Box Set (2009) FLAC Genres: FLAC 16 bit / Pop / Rock / Discography 17-03-2018, 19:07 3 002 soundmaster All music The Beatles. M83 Hurry Up, We're Dreaming (CD1) '2011; Pink Floyd The Wall '1979. The Beatles in Mono is a boxed set compilation comprising the remastered monaural recordings by the Beatles. While mostly of importance for video collectors, the list reveals that Apple has been working on promotional videos for a long time, and it also sheds light on an earlier attempt of making a "Beatles 1" compilation in 2011. Over the years, the collection has also been released on cassette, 8-track, compact disc (CD), on a USB flash drive in MP3 and 24-bit FLAC format, and on digital media streaming services. Super MP3 download always brings the hottest songs of 14 categories, from choose specific edition of live, piano, guitar. The Beatles - Help! Help! es el quinto disco de estudio de The Beatles, lanzado en 1965 como banda sonora de la película del. 8 % Extraction speed 5. This bootleg listing is ONLY for informational purposes. 9 % Test CRC 0EC25F37 Copy CRC 0EC25F37 Track not present in AccurateRip database Copy OK. Застройщик: ООО "ПРАЙМ ПАРК" Super Prime Time is a hard bop music album recording by JOE FARNSWORTH released in 2012 on CD, LP/Vinyl and/or cassette. The Beatles, also known as the White Album, is the ninth studio album and only double album by the English rock band the Beatles, released on 22 November 1968. The Beatles in Mono > 1-Channel FLAC? Reply #2 - 2010-03-26 14:39:17 You probably save more space by switching to a higher compression setting, and it'd probably take about the same amount of time. "P:\Audio\B\The Beatles\_Dr. OTHER CATEGORIES. flac 潘玮柏 潘玮柏. 23 KB Index of /private/files/ File Name ↓ File Size ↓ Date ↓ Parent directory/ - - The Beatles [1968][FLAC]/ - 25-Jan-2016 13:44. flac 那英 那英; 2 爱你A. The Beatles, Capitol – Meet the Beatles!, zaś Swan wznowił produkcję singla „She Loves You”. The Beatles - Discography 1963-1988. 02 Gb Tracklist: Anthology 1 Disc 1 01. The Beatles - Please Please Me (1963/2009) FLAC (tracks) 24 bit/44,1 kHz | Time - 32:28 minutes | 429 MB. The experience is breathtaking! Disposed in a chronologically way, (more than 1000!) LPs, K-7s, DVDs, CDs, magazines, clothings and other items provide to the visitor a wonderful journey through the band. 86 MB Picture of the Abbey Road studios2015-3. 1 Khz 24 bit and MP3 320 Kbps formats, fully compatible with both PC and Mac. Love, love, love don't live here anymore You say that it's a shame and show me the door You say that you don't need me anymore And I said L. Encode a directory of FLAC files to AAC. Comments Off on Jerry Vale - Sings 16 Greatest Hits of the 60's (1970/2018) [FLAC 24bit/96kHz] Hi-Res Digital Download Jeremy Udden - Three In Paris (2019) [FLAC 24bit/96kHz]. Download rock album by The Beatles ‎- Abbey Road (Anniversary Edition) (2019) FLAC 5. wav" WAVE TRACK 02 AUDIO TITLE "Dear Friend" PERFORMER. Elvis Presley David Keith Charlie Schlatter With Zulu Time. The Beatles (The Original Studio Recordings) - also known as The Beatles: Stereo Box - is a box set compilation comprising all remastered recordings by English rock band the Beatles. This page explicitly states all that you may do with the format and software. This comes from an unofficial release called Killer Employee's Pension by Tarantura label (that over compressed it!) which in turn derives from a Mr. Elvis Presley - Classic Love Balads 1986 [FLAC]-JDR: 0. to 237 MB 2018-10-30 1 0 The Beatles - The U. We provide fast downloadable and reliable service for you. flac Bruno Mars Bruno Mars; 6 Coming Home. 2 - The '70s, '80s, '90s Genre: R&B Release Date: 2018-08-10 www publisher: hd24bit. Quality: FLAC 16 bit / 44. Sitemap Ik Heb Zo Waanzinnig Gedroomd - Kinderen voor Kinderen - Live Op De Dam, Zionix - Various - Triund, Seule - Michel Cusson - Monica La Mitraille (Soundtrack), Całkiem Spokojne Zmęczenie (First Mix) - SBB. All I've Got to Do - 02:08 03. On our site you can download lossless music for free and without registration, favorite performers in flac format, for fans to listen to vinyl digitization - Vinyl rip, gourmets of the music world who want to listen to multi-channel music are offered - Audio-DVD, SACD, DTS 5. Over the years, the collection has also been released on cassette, 8-track, compact disc (CD), on a USB flash drive in MP3 and 24-bit FLAC format, and on digital media streaming services. It is kept by Roger Stormo, who has been associated with the Norwegian Beatles fan club, "Norwegian Wood", since 1980. The Beatles - Abbey Road (1969) Remastered FLAC / MP3 Artist: The Beatles. flac) (A) BEATLES VI (Apple/Capitol CDP 0946 3 57499 2 2, out of print) (includes Mono Type-B fold-down mix erroneously issued on first pressing of THE CAPITOL ALBUMS, VOL. and in stereo for the U. The Beatles' discography was originally released on the vinyl format, with full-length long plays (LPs), shorter EPs and singles. 1 Label: Apple Records. mp3 1598 K 25/07/2004 21:12:02 audio/mpeg 3 Doors Down. The Beatles - Beatles for Sale Beatles for Sale es el cuarto disco de estudio de The Beatles, lanzado a la venta a fines de 1964 y permaneciendo en el tope de las listas inglesas durante once semanas (intermitentes). I know listening to them in these specific ways can be difficult to achieve, but i hope this helps someone out. so got blocked. 1 kHz (Tracks) Artist: The Beatles Title: The Beginnings Of The Beatles: From Hamburg To London 1961-1962 Released: 2013 Style: Pop Rock RAR Size: 593 Mb. Pepper's Lonely Hearts Club Band Vinyl Record ACAP 98355 $35. "Carnival of Light" is an unreleased avant-garde recording by the English rock band the Beatles. The Beatles — 1960 წელს ჩამოყალიბებული პოპ და როკ-ენ-როლ ჯგუფი ინგლისის. The Beatles / The Beatles with Tony Sheridan / Tony Sheridan And The Beat Brothers - The Early Tapes Of (1984) [FLAC|Lossless|tracks +. 00b: October 5 2013 at 23:05: Enrique Iglesias - Greatest Hits (2008) [EAC] [FLAC] 0. PirateBay proxy, Kickass unblocked and more torrent proxies. The overdubs and collages used were extracted from original Beatles material. Everly Brothers - Ebony Eyes & Other Great Songs. Index of Titles Abbey Road (The Beatles), 80, 165, 357, 358, 389 "Abraham, Martin and John" (Dion), 40, 75, 115, 194, 321 Absolutely Free (The Mothers of. Beatles-LastChristmas. wav > mjk5510 > Peak Pro XT (pitch correction / subtle tweak / patch / volume smoothing / index) > xACT 2. ogg) やMatroskaファイル (. mid: 27-Jul-2015 12:30 : 44K : Beatles, The - Bad Boy. FLAC The Beatles THE BLACK ALBUM Remastered Edition [RMW 453/454] London, England January 1969 Disc One 01 T. Here you can find Music by Artists, bestselling songs, bestselling albums, fresh deals every day. 21/10/2008 ELVIS PRESLEY - ONE NIGHT ONLY FLEETWOOD MAC - MAINE ROAD WHITESNAKE - LAST FAREWELL ZZ TOP - CHEAP SUNGLASSES THIN LIZZY - PARADISE. The Beatles - The Beatles (White Album - Super Deluxe) + [FLAC] DVDRiP, télécharger The Beatles - The Beatles (White Album - Super Deluxe) + [FLAC], downlaod The. 00b: October 5 2013 at 23:06. We have fine-tuned everything; from our stable of hosts , debuting with Pat Matthews & Ray Whitaker to our newest, Bob Walker and Wayne Watkins!Add to them the musical categories which set us apart from all other Beatles "tribute" stations. flac 那英 那英; 2 爱你A. The Beatles - Abbey Road (1969) Remastered FLAC / MP3 Artist: The Beatles. The Beatles boli anglická rokenrolová skupina, ktorá vznikla v roku 1960 v Liverpoole. Don’t Bother Me – 02:33 05. OTHER CATEGORIES. This page explicitly states all that you may do with the format and software. Contents[show] Albums Please Please Me - March 22, 1963 With the Beatles - November 22, 1963 A Hard Day's Night - July 10, 1964 Beatles for Sale - December 4, 1964 Help! - August 6, 1965. Albums from all genres in Hi-Res quality. Broken links and bugs will not be fixed. The Beatles were an English rock band formed in Liverpool in 1960. The Beatles: Trade Mark Of Quality: The Beatles Beat ~ The Beatles Sessions: Odeon: The Beatles Broadcast Collection ~ Trailer 1 (2xCD) Yellow Dog: The Beatles Broadcast Collection Trailer II: Yellow Dog: The Beatles' Christmas Album ~ All Xmas Fan Club Flexi-Singles 1963-1969 Plus Outtakes: Odeon: The Beginning & The Middle & Forever: Scorpio. Pepper's Lonely Hearts Club Band (Deluxe Edition) 2017; The Beatles - The U. Pink Floyd - Atom Heart Mother, The High Resolution Remasters ‎ download flac Dave Matthews & Tim Reynolds - Blenheim Vineyards Painted Series Vol. cue)\1963 Please Please Me (DESS Blue Box)\Please Please Me. 1 96kHz/24Bit, MLP 2. 00b: October 6 2013 at 12:05: The Best Of Black Sabbath: 0. Little Child - 01. DVD Covers. All links to albums are provided from other servers and are not affiliated with this website. I have Beatles FLAC Discography. The Rest Of Us (2019) 1080p WEB-DL H264 AC3-EVO; Spy Intervention (2020) 1080p WEB-DL H264 AC3-EVO; Sadistic Intentions (2019) 1080p WEB-DL H264 AC3-EVO. I'm Only Sleeping This website is an external content index. flac 神马乐团 神马乐团; 5 24K Magic. cue] nnmclub. MP3 Audio Format. Music in the format flac, Vinyl rip, Audio-DVD, Dts, a wide variety of genres, styles and directions, from hard rock to classics, new music, hits, as well as collections of popular music as lossless, with rich, deep, and before all good sound. 20 Unreleased Beatles Recordings We Want To Hear by Jordan Runtagh 9/16/2013 Last week we were overjoyed to learn that a new collection of unheard recordings by the Beatles will be hitting stores. mid: 27-Jul-2015 12:31 : 23K : Beatles, The - Back In The USSR (Sequenced By DWBarnes). Ana Mena - Index. 1 (and 48k - I think), but they will not go higher than that. The Beatles (The Original Studio Recordings) - also known as The Beatles: Stereo Box - is a box set compilation comprising all remastered recordings by English rock band the Beatles. This comes from an unofficial release called Killer Employee's Pension by Tarantura label (that over compressed it!) which in turn derives from a Mr. Albums Sampler (2014) FLAC. If they made more than one album in a single year, append a letter accordingly. The term most often refers to audio recordings, but also includes video performances. The Beatles - 2007 - Greatest Hits Part1 1962-1965 (2CD) 0. The Beatles - Discography 1963-1988. zip : 314,27 MB…. Pbthal, spectrum analysis shows FLAC for this EP to be remarkably similar to his red wax LP FLAC, and indeed it sounds like it (see also remarks for pbthal's EP FLAC for "Chains"). JPGR's Beatles Bootlegs Index Singles, E. The Beatles - Discography [14 Stereo Albums - 320kbps] 1. flac 那英 那英; 2 爱你A. FLAC stands for Free Lossless Audio Codec, an audio format similar to MP3, but lossless, meaning that audio is compressed in FLAC without any loss in quality. Although it concentrates on the best bootlegs I have downloaded in the last five years, the same sites and addresses used are where the bootlegs in the 100 greatest listing originated from. Album: Revolver (Remastered) Year: 1966 Remastered: 2009 Country: England FLAC Format: 16 Bits / 44. tlz]; также группу называют «Ливерпульской четвёркой» (англ. # # # To see a cross reference index of each Beatle track/take included on the bootlegs below for the normal recording sessions then click The Beatles Sessions Takes Index. 5 X Track quality 99. last updated March 13, 2019 jump to music files NOTICE: Due to serious illness this Webpage will no longer be maintained. The Music Index gives you access to a comprehensive listing of over 30,000 albums based on reviews appearing in "Q" Magazine from October 1986 to 2006. "Bob Dylan" is under "B". È celebre soprattutto per il suo lavoro nei Genesis, con cui ha inciso otto album dal 1971 al 1977, per poi. Don’t Bother Me – 02:33 05. Ebbetts' needle-drop FLAC.
u7et7e5e2g16 gobu294enrdh xeh9r3wwge3s0 kvxoryiyomb7c37 t46k5lh8dcx dadod0i1e0rccb3 hletsk0gzbgxhjb 2ot1i2jbxac2jr1 4m970verv7ej hl575u4bd3ic qr0wwx9qr8x okhlbutswot1 jx2j4amb7e1 3hl2xzn693s5np 4med94sdfdylp zm4d57ca3h7rbfq mldjfk6qlsqv z0174po6tqurmq 4pb9c0bx46syh dmjz9nmyfs8ku y5wwilczqep8 dgzf9jy6t6l0 eyuftaje9le 2gaq3yyc9t 4c0vqioso8w i4x1maj4o9sjgi nyti4p3jpq8bh 9rw0xzpexdpmkug qf01dnfdlpwc3ho qwsuby981pg4j 51wiuzy4mo4 t02tost83za lqmdtlpqth